Hajimete No Gal (Sin Censura) [10/10][1080p][Mega][MKV]


Primavera. La “temporada del amor” ha llegado y parece que encontrar a sí misma una novia era más difícil de lo que Junichi creía. Para romper el statu quo, los amigos de Junichi lo han obligado a confesar a la chica, Yame Yukana. Sin embargo, las cosas no van tan bien como él esperaba. ¡Comienza una serie de “primeros”!
Ficha Técnica
TÍTULO: Hajimete No Gal
AÑO: 2017
DURACIÓN: 24 min.
ESTUDIO: NAZ
GÉNERO: Comedia, Romance, Ecchi, Escolar, Shounen
EPISODIOS: 10/10
RESOLUCIÓN: 1080p
CALIDAD: WEB
FORMATO: MKV
AUDIO: Japonés
SUBTÍTULOS: Español, Ingles
PESO POR CAPITULO: 540MB
SUBIDO POR: TaTo30

Readers Comments (5)

  1. *Gracias Muy Buena Calidad De video
    *Gracias Los Sus No Estan Pegados Al Video
    *Sin Censura. Fenomenal Gracias

    Video
    ID : 3
    Format : HEVC
    Format/Info : High Efficiency Video Coding
    Format profile : Main 10@L4@Main
    Codec ID : V_MPEGH/ISO/HEVC
    Duration : 23 min 40 s
    Bit rate : 1 516 kb/s
    Width : 1 920 pixels
    Height : 1 080 pixels
    Display aspect ratio : 16:9
    Frame rate mode : Constant
    Frame rate : 23.976 (24000/1001) FPS
    Color space : YUV
    Chroma subsampling : 4:2:0
    Bit depth : 10 bits
    Bits/(Pixel*Frame) : 0.030
    Stream size : 257 MiB (91%)
    Writing library : x265 2.1+69-c97c64ab8b8e:[Windows]
    Format : AAC
    Format/Info : Advanced Audio Codec
    Format profile : LC
    Codec ID : A_AAC
    Duration : 23 min 40 s
    Bit rate : 141 kb/s
    Channel(s) : 2 channels
    Channel positions : Front: L R
    Sampling rate : 48.0 kHz
    Frame rate : 46.875 FPS (1024 spf)
    Compression mode : Lossy
    Stream size : 23.8 MiB (8%)
    Language : Japanese
    Default : Yes
    Forced : Yes

    Text
    ID : 1
    Format : ASS
    Codec ID : S_TEXT/ASS
    Codec ID/Info : Advanced Sub Station Alpha
    Duration : 23 min 33 s
    Bit rate : 154 b/s
    Count of elements : 400
    Compression mode : Lossless
    Stream size : 26.7 KiB (0%)
    Language : Spanish
    Default : Yes
    Forced : No

  2. Tengo problemas en algunos capítulos con los subtitulos, aveces salen después de la escena o antes de la escena, o cuando no hay diálogos aparecen subtitulos

Deja un comentario.

Tu dirección de correo no será publicada.